Raven blickt durch | Michael Wai-Man Chan | Download

Daas Dev 2018 x264 720p TV GOPISAHI

  • Category Movies
  • Type Bollywood
  • Language Hindi
  • Total size 544.7 MB
  • Uploaded By PENDUDESI
  • Downloads 6
  • Last checked 29 minutes ago
  • Date uploaded 33 minutes ago
  • Seeders 1
  • Leechers 0

Daas Dev

Thriller

Daas Dev is a political thriller in which Dev is not a loser but a person who takes control of his life. He gets addicted to drugs and alcohol and eventually becomes hungry for power. Whether Dev manages to rid himself of these addictions and how Paro and Chandramukhi figure in his already convoluted life forms the crux of the story.

Infohash : 8C47CCA66CC8C4560D00AA08F79809F17E70ABC7

http://www.gopisahi.pw/


Format : Matroska
Format version : Version 4 / Version 2
File size : 545 MiB
Duration : 2 h 11 min
Overall bit rate : 577 kb/s
Movie name : Daas Dev 2018 GOPISAHI

Video
Format : AVC
Codec ID : V_MPEG4/ISO/AVC
Duration : 2 h 11 min
Bit rate : 499 kb/s
Width : 1 280 pixels
Height : 578 pixels
Display aspect ratio : 2.2:1
Frame rate mode : Variable
Frame rate : 19.923 FPS
Color space : YUV
Chroma subsampling : 4:2:0
Bit depth : 8 bits
Scan type : Progressive
Bits/(Pixel*Frame) : 0.034
Stream size : 470 MiB (86%)
Title : GOPISAHI
Writing library : x264 core 155 r2901 7d0ff22

Audio
Format : AAC
Duration : 2 h 11 min
Bit rate : 77.3 kb/s
Channel(s) : 2 channels
Channel positions : Front: L R
Sampling rate : 48.0 kHz
Frame rate : 46.875 FPS (1024 SPF)
Compression mode : Lossy
Delay relative to video : -1 s 789 ms
Stream size : 72.8 MiB (13%)
Title : GOPISAHI
Language : Hindi


Files:

  • Daas Dev 2018 x264 720p TV GOPISAHI.mkv (544.7 MB)

There are currently no comments. Feel free to leave one :)

Code:

  • udp://9.rarbg.com:2740/announce
  • udp://9.rarbg.to:2800/announce
  • udp://inferno.demonoid.pw:3391/announce
  • udp://tracker.leechers-paradise.org:6969/announce
  • udp://tracker.coppersurfer.tk:80/announce
  • udp://tracker.coppersurfer.tk:6969/announce
  • udp://tracker.opentrackr.org:1337/announce
  • udp://p4p.arenabg.com:1337/announce
  • UDP://EDDIE4.NL:6969/ANNOUNCE
  • udp://tracker.pirateparty.gr:6969/announce
  • udp://tracker.tiny-vps.com:6969/announce
  • udp://public.popcorn-tracker.org:6969/announce
  • udp://tracker.torrent.eu.org:451/announce